Скачать Tsuyoshi Yamamoto Trio – What a Wonderful World – 2013


Tsuyoshi Yamamoto Trio – What a Wonderful World

Жанр: Post-Bop
Страна-производитель диска: Япония
Год издания: 2013
Издатель (лейбл): Venus Records
Номер по каталогу: VHCD-1122
Аудиокодек: FLAC (*.flac)
Тип рипа: tracks+.cue
Битрейт аудио: lossless
Продолжительность: 55:59
Источник (релизер): tnm237 (what)
Наличие сканов в содержимом раздачи: сетевые
Треклист:
01. Tea for Two (Youmans) – 4:30
02. Cleopatra’s Dream (Powell) – 3:00
03. Blues of You (Yamamoto) – 5:33
04. What a Wonderful World (Douglas) – 5:52
05. Poinciana (Simon) – 8:48
06. Nanatsu no Ko (Trad.) – 3:48
07. Caravan (Ellington-Tizol) – 6:30
08. Home on the Range (Trad.) – 4:04
09. Like It Is (Garner) – 3:01
10. Speak Low (Weill) – 5:16
11. Tsuki no Sabaku (Sasaki) – 4:08
12. Little Blues (Yamamoto) – 1:29
Состав:
Tsuyoshi Yamamoto – piano, Rhodes (#10-12)
Hiroshi Kagawa – bass
Toshio Osumi – drums
Recorded at Sony Music Studios, Tokyo on January 24, 2013.

Лог создания рипа

Exact Audio Copy V1.0 beta 3 from 29. August 2011
EAC extraction logfile from 16. July 2013, 15:13
Tsuyoshi Yamamoto Trio / What a Wonderful World
Used drive : TEAC DV-W516E Adapter: 4 ID: 0
Read mode : Secure
Utilize accurate stream : Yes
Defeat audio cache : Yes
Make use of C2 pointers : No
Read offset correction : 102
Overread into Lead-In and Lead-Out : No
Fill up missing offset samples with silence : Yes
Delete leading and trailing silent blocks : No
Null samples used in CRC calculations : Yes
Used interface : Native Win32 interface for Win NT & 2000
Gap handling : Appended to previous track
Used output format : User Defined Encoder
Selected bitrate : 128 kBit/s
Quality : High
Add ID3 tag : No
Command line compressor : C:\Program Files (x86)\Exact Audio Copy\Flac\flac.exe
Additional command line options : -8 -V -T "ARTIST=%artist%" -T "TITLE=%title%" -T "ALBUM=%albumtitle%" -T "DATE=%year%" -T "TRACKNUMBER=%tracknr%" -T "GENRE=%genre%" -T "PERFORMER=%albuminterpret%" -T "COMPOSER=%composer%" %haslyrics%--tag-from-file=LYRICS="%lyricsfile%"%haslyrics% -T "ALBUMARTIST=%albumartist%" -T "DISCNUMBER=%cdnumber%" -T "TOTALDISCS=%totalcds%" -T "TOTALTRACKS=%numtracks%" -T "COMMENT=%comment%" %source% -o %dest%
TOC of the extracted CD
Track | Start | Length | Start sector | End sector
---------------------------------------------------------
1 | 0:00.00 | 4:29.45 | 0 | 20219
2 | 4:29.45 | 2:59.57 | 20220 | 33701
3 | 7:29.27 | 5:33.13 | 33702 | 58689
4 | 13:02.40 | 5:51.60 | 58690 | 85074
5 | 18:54.25 | 8:48.08 | 85075 | 124682
6 | 27:42.33 | 3:47.74 | 124683 | 141781
7 | 31:30.32 | 6:29.64 | 141782 | 171020
8 | 38:00.21 | 4:03.44 | 171021 | 189289
9 | 42:03.65 | 3:00.39 | 189290 | 202828
10 | 45:04.29 | 5:15.48 | 202829 | 226501
11 | 50:20.02 | 4:07.59 | 226502 | 245085
12 | 54:27.61 | 1:28.51 | 245086 | 251736
Track 1
Filename D:\_MEGATASK\Tsuyoshi Yamamoto Trio - (2013) - What a Wonderful World\01 - Tea for Two.wav
Pre-gap length 0:00:02.00
Peak level 100.0 %
Extraction speed 3.7 X
Track quality 99.9 %
Test CRC 3C8BADC1
Copy CRC 3C8BADC1
Track not present in AccurateRip database
Copy OK
Track 2
Filename D:\_MEGATASK\Tsuyoshi Yamamoto Trio - (2013) - What a Wonderful World\02 - Creopatra's Dream.wav
Pre-gap length 0:00:02.60
Peak level 100.0 %
Extraction speed 4.9 X
Track quality 100.0 %
Test CRC 51BEDEE3
Copy CRC 51BEDEE3
Track not present in AccurateRip database
Copy OK
Track 3
Filename D:\_MEGATASK\Tsuyoshi Yamamoto Trio - (2013) - What a Wonderful World\03 - Blues of You.wav
Pre-gap length 0:00:02.60
Peak level 100.0 %
Extraction speed 5.9 X
Track quality 100.0 %
Test CRC 12A664A7
Copy CRC 12A664A7
Track not present in AccurateRip database
Copy OK
Track 4
Filename D:\_MEGATASK\Tsuyoshi Yamamoto Trio - (2013) - What a Wonderful World\04 - What a Wonderful World.wav
Pre-gap length 0:00:02.60
Peak level 98.4 %
Extraction speed 6.6 X
Track quality 100.0 %
Test CRC C02150F9
Copy CRC C02150F9
Track not present in AccurateRip database
Copy OK
Track 5
Filename D:\_MEGATASK\Tsuyoshi Yamamoto Trio - (2013) - What a Wonderful World\05 - Poinciana.wav
Pre-gap length 0:00:02.60
Peak level 100.0 %
Extraction speed 7.4 X
Track quality 100.0 %
Test CRC 4BB52A46
Copy CRC 4BB52A46
Track not present in AccurateRip database
Copy OK
Track 6
Filename D:\_MEGATASK\Tsuyoshi Yamamoto Trio - (2013) - What a Wonderful World\06 - Nanatsu No Ko.wav
Pre-gap length 0:00:02.60
Peak level 91.7 %
Extraction speed 7.2 X
Track quality 100.0 %
Test CRC 66EB6CAA
Copy CRC 66EB6CAA
Track not present in AccurateRip database
Copy OK
Track 7
Filename D:\_MEGATASK\Tsuyoshi Yamamoto Trio - (2013) - What a Wonderful World\07 - Caravan.wav
Pre-gap length 0:00:02.60
Peak level 100.0 %
Extraction speed 8.1 X
Track quality 100.0 %
Test CRC C7412422
Copy CRC C7412422
Track not present in AccurateRip database
Copy OK
Track 8
Filename D:\_MEGATASK\Tsuyoshi Yamamoto Trio - (2013) - What a Wonderful World\08 - Home on the Range.wav
Pre-gap length 0:00:02.60
Peak level 100.0 %
Extraction speed 7.5 X
Track quality 100.0 %
Test CRC 5EA2C7DE
Copy CRC 5EA2C7DE
Track not present in AccurateRip database
Copy OK
Track 9
Filename D:\_MEGATASK\Tsuyoshi Yamamoto Trio - (2013) - What a Wonderful World\09 - Like It Is.wav
Pre-gap length 0:00:02.60
Peak level 100.0 %
Extraction speed 7.4 X
Track quality 100.0 %
Test CRC D83304C2
Copy CRC D83304C2
Track not present in AccurateRip database
Copy OK
Track 10
Filename D:\_MEGATASK\Tsuyoshi Yamamoto Trio - (2013) - What a Wonderful World\10 - Speak Low.wav
Pre-gap length 0:00:02.60
Peak level 100.0 %
Extraction speed 8.3 X
Track quality 100.0 %
Test CRC C4C51DEB
Copy CRC C4C51DEB
Track not present in AccurateRip database
Copy OK
Track 11
Filename D:\_MEGATASK\Tsuyoshi Yamamoto Trio - (2013) - What a Wonderful World\11 - Tsuki No Sabaku.wav
Pre-gap length 0:00:02.60
Peak level 94.0 %
Extraction speed 7.5 X
Track quality 100.0 %
Test CRC 8104D9D0
Copy CRC 8104D9D0
Track not present in AccurateRip database
Copy OK
Track 12
Filename D:\_MEGATASK\Tsuyoshi Yamamoto Trio - (2013) - What a Wonderful World\12 - Little Blues.wav
Pre-gap length 0:00:02.60
Peak level 98.5 %
Extraction speed 5.9 X
Track quality 100.0 %
Test CRC C7C22B78
Copy CRC C7C22B78
Track not present in AccurateRip database
Copy OK
None of the tracks are present in the AccurateRip database
No errors occurred
End of status report
---- CUETools DB Plugin V2.1.3
[CTDB TOCID: a0RSzw45lQU4Z7NhXa0OZE7kuFA-] disk not present in database, Submit result: a0RSzw45lQU4Z7NhXa0OZE7kuFA- has been uploaded
==== Log checksum D34DBD4DFA6DC08AD4BF53BF25725B7B707FA35BA4AC0D862665A7F8B15DA6AE ====

Содержание индексной карты (.CUE)

REM GENRE Jazz
REM DATE 2013
REM DISCID 9F0D1C0C
REM COMMENT "ExactAudioCopy v1.0b3"
PERFORMER "Tsuyoshi Yamamoto"
TITLE "What a Wonderful World"
FILE "01 - Tea for Two.wav" WAVE
TRACK 01 AUDIO
TITLE "Tea for Two"
PERFORMER "Tsuyoshi Yamamoto"
INDEX 01 00:00:00
TRACK 02 AUDIO
TITLE "Creopatra's Dream"
PERFORMER "Tsuyoshi Yamamoto"
INDEX 00 04:27:00
FILE "02 - Creopatra's Dream.wav" WAVE
INDEX 01 00:00:00
TRACK 03 AUDIO
TITLE "Blues of You"
PERFORMER "Tsuyoshi Yamamoto"
INDEX 00 02:57:12
FILE "03 - Blues of You.wav" WAVE
INDEX 01 00:00:00
TRACK 04 AUDIO
TITLE "What a Wonderful World"
PERFORMER "Tsuyoshi Yamamoto"
INDEX 00 05:30:43
FILE "04 - What a Wonderful World.wav" WAVE
INDEX 01 00:00:00
TRACK 05 AUDIO
TITLE "Poinciana"
PERFORMER "Tsuyoshi Yamamoto"
INDEX 00 05:49:15
FILE "05 - Poinciana.wav" WAVE
INDEX 01 00:00:00
TRACK 06 AUDIO
TITLE "Nanatsu no Ko"
PERFORMER "Tsuyoshi Yamamoto"
INDEX 00 08:45:38
FILE "06 - Nanatsu no Ko.wav" WAVE
INDEX 01 00:00:00
TRACK 07 AUDIO
TITLE "Caravan"
PERFORMER "Tsuyoshi Yamamoto"
INDEX 00 03:45:29
FILE "07 - Caravan.wav" WAVE
INDEX 01 00:00:00
TRACK 08 AUDIO
TITLE "Home on the Range"
PERFORMER "Tsuyoshi Yamamoto"
INDEX 00 06:27:19
FILE "08 - Home on the Range.wav" WAVE
INDEX 01 00:00:00
TRACK 09 AUDIO
TITLE "Like It Is"
PERFORMER "Tsuyoshi Yamamoto"
INDEX 00 04:00:74
FILE "09 - Like It Is.wav" WAVE
INDEX 01 00:00:00
TRACK 10 AUDIO
TITLE "Speak Low"
PERFORMER "Tsuyoshi Yamamoto"
INDEX 00 02:57:69
FILE "10 - Speak Low.wav" WAVE
INDEX 01 00:00:00
TRACK 11 AUDIO
TITLE "Tsuki no Sabaku"
PERFORMER "Tsuyoshi Yamamoto"
INDEX 00 05:13:03
FILE "11 - Tsuki no Sabaku.wav" WAVE
INDEX 01 00:00:00
TRACK 12 AUDIO
TITLE "Little Blues"
PERFORMER "Tsuyoshi Yamamoto"
INDEX 00 04:05:14
FILE "12 - Little Blues.wav" WAVE
INDEX 01 00:00:00

Отчет CUETools

[CUETools log; Date: 19.11.2013 23:04:25; Version: 2.1.4]
[CTDB TOCID: a0RSzw45lQU4Z7NhXa0OZE7kuFA-] found.
Track | CTDB Status
1 | (5/5) Accurately ripped
2 | (5/5) Accurately ripped
3 | (5/5) Accurately ripped
4 | (5/5) Accurately ripped
5 | (5/5) Accurately ripped
6 | (5/5) Accurately ripped
7 | (5/5) Accurately ripped
8 | (5/5) Accurately ripped
9 | (5/5) Accurately ripped
10 | (5/5) Accurately ripped
11 | (5/5) Accurately ripped
12 | (5/5) Accurately ripped
[AccurateRip ID: 001ab659-00f97141-9f0d1c0c] found.
Track [ CRC | V2 ] Status
01 [48872eab|532d56d0] (0+1/1) Accurately ripped
02 [37bb6ee9|5e2f9c49] (0+1/1) Accurately ripped
03 [148bc313|4bc31c15] (0+1/1) Accurately ripped
04 [c6d215d5|48f835d5] (0+1/1) Accurately ripped
05 [32b85d82|b1df2075] (0+1/1) Accurately ripped
06 [293f25af|e01f1ad5] (0+1/1) Accurately ripped
07 [81c65e67|df03a7e4] (0+1/1) Accurately ripped
08 [32bf4fa8|ff40ce41] (0+1/1) Accurately ripped
09 [f0a46d91|8f362c46] (0+1/1) Accurately ripped
10 [6b396da5|fc7b8349] (0+1/1) Accurately ripped
11 [a53604c7|1ed54a94] (0+1/1) Accurately ripped
12 [06700cdb|90a19309] (0+1/1) Accurately ripped
Track Peak [ CRC32 ] [W/O NULL] [ LOG ]
-- 100,0 [0506C77C] [60E1B181]
01 100,0 [3C8BADC1] [102EF80A] CRC32
02 100,0 [51BEDEE3] [11BDC013] CRC32
03 100,0 [12A664A7] [39294041] CRC32
04 98,4 [C02150F9] [9471E990] CRC32
05 100,0 [4BB52A46] [1E1E1307] CRC32
06 91,7 [66EB6CAA] [8FB12A6E] CRC32
07 100,0 [C7412422] [15703D31] CRC32
08 100,0 [5EA2C7DE] [D87528EB] CRC32
09 100,0 [D83304C2] [8E54FDE9] CRC32
10 100,0 [C4C51DEB] [CAB80E58] CRC32
11 94,0 [8104D9D0] [052C98D1] CRC32
12 98,5 [C7C22B78] [4213925E] CRC32

Об альбоме (сборнике)
Since his stunning debut in 1974 with the now world-famous audiophile recordings for the Three Blind Mice label, Japanese pianist Tsuyoshi Yamamoto has built a career that now spans four decades. His brand-new trio album What A Wonderful World follows his previous release Gentle Blues (VHCD-1118), his first recording for Venus Records in 14 years.
In fact, the 12 tracks in this CD were recorded on the day after 10 tracks on Gentle Blues were recorded. It is remarkable that Yamamoto and his trio recorded enough materials for two CDs in two consecutive days, but then again, he is a veteran pianist who doesn’t like to repeat himself and prefers to record everything in a single take. This CD even contains several tunes that were included in the previous one, but they are justified as they are significantly different in terms of musical approach and presentation. The last three tracks are bonus tracks in which Yamamoto plays Fender Rhodes.
As per the high standard set by Venus, the sound quality of this CD is also excellent with its signature heavy, gutsy sound. Recommended!